<?xml version="1.0" standalone="no"?>
<!DOCTYPE svg PUBLIC "-//W3C//DTD SVG 1.1//EN" "http://www.w3.org/Graphics/SVG/1.1/DTD/svg11.dtd" >
<svg xmlns="http://www.w3.org/2000/svg">
<metadata>Generated by IcoMoon</metadata>
<defs>
<font id="cptools" horiz-adv-x="1024">
<font-face units-per-em="1024" ascent="960" descent="-64" />
<missing-glyph horiz-adv-x="1024" />
<glyph unicode="&#x20;" horiz-adv-x="512" d="" />
<glyph unicode="&#xe900;" glyph-name="folder-no-color" d="M194.559 846.275c-77.457-0.137-140.211-62.89-140.348-140.334v-515.869c0.137-77.457 62.892-140.211 140.336-140.348h634.893c77.457 0.137 140.211 62.892 140.348 140.336v396.602c0 77.561-62.808 140.453-140.336 140.59h-296.852l-47.104 62.885c-25.923 34.066-66.407 55.898-112 56.139h-178.937zM194.553 787.607h178.906c26.48-0.030 50.004-12.656 64.908-32.207l0.146-0.199 47.104-62.766 17.709-24.094h326.113c45.125-0.069 81.68-36.665 81.68-81.799v-396.471c-0.042-27.788-13.947-52.311-35.156-67.064l-725.621 651.525c12.744 8.239 27.912 13.050 44.211 13.074zM115.25 725.406l687.184-617.014h-607.875c-45.083 0.068-81.61 36.598-81.678 81.674v515.861c0.010 6.714 0.834 13.236 2.369 19.479z" />
<glyph unicode="&#xe901;" glyph-name="whiteboard" horiz-adv-x="878" d="M65.524 945.762c-29.444 0-53.333-23.889-53.333-53.333v-888.857c0-29.444 23.889-53.333 53.333-53.333h746.667c29.444 0 53.333 23.889 53.333 53.333v640c0 29.444-17.206 70.54-37.762 91.095l-173.333 173.333c-20.556 20.556-61.698 37.762-91.143 37.762h-497.762zM83.286 874.667h426.667v-231.095c0-29.444 23.889-53.333 53.333-53.333h231.143v-568.905h-711.143v853.333zM581.095 870.238c9.444-3.333 18.873-8.349 22.762-12.238l173.905-173.905c3.889-3.889 8.857-13.317 12.19-22.762h-208.857v208.905zM446.333 524.286c-17.277 0.517-34.937-1.027-52.952-4.571-22.15-4.43-42.984-11.806-62.476-22.143-19.492-10.632-37.062-23.776-52.714-39.429-15.357-15.357-28.321-32.794-38.952-52.286-10.632-19.196-18.189-39.85-22.619-62-7.974-41.346-5.87-79.57 6.238-114.714 12.404-35.144 30.421-65.145 54.048-89.952 23.626-24.512 50.629-42.977 81.048-55.381 30.714-12.108 60.087-15.954 88.143-11.524 18.31 2.658 31.188 12.718 38.571 30.143 7.679 17.72 7.364 34.709-0.905 50.952-10.337 20.082-9.623 39.575 2.19 58.476 11.813 19.196 29.117 28.762 51.857 28.762h70.429c15.948 0 29.539 5.635 40.762 16.857 11.222 11.518 16.81 25.243 16.81 41.19 0 34.849-7.51 67.353-22.571 97.476-14.766 29.828-34.707 55.089-59.809 75.762-24.808 20.673-53.599 35.559-86.381 44.714-16.538 4.578-33.438 7.15-50.714 7.667zM439 467.476c7.974 0 14.636-2.817 19.952-8.429 5.611-5.316 8.429-11.979 8.429-19.952s-2.817-14.77-8.429-20.381c-5.316-5.316-11.978-7.952-19.952-7.952s-14.77 2.636-20.381 7.952c-5.316 5.611-7.952 12.407-7.952 20.381s2.636 14.636 7.952 19.952c5.611 5.611 12.407 8.429 20.381 8.429zM325.619 410.762c7.974 0 14.589-2.817 19.905-8.429 5.611-5.316 8.429-11.979 8.429-19.952s-2.817-14.77-8.429-20.381c-5.316-5.316-11.931-7.952-19.905-7.952s-14.77 2.636-20.381 7.952c-5.316 5.611-8 12.407-8 20.381s2.684 14.636 8 19.952c5.611 5.611 12.407 8.429 20.381 8.429zM552.429 410.762c7.974 0 14.636-2.817 19.952-8.429 5.611-5.316 8.381-11.979 8.381-19.952s-2.77-14.77-8.381-20.381c-5.316-5.316-11.978-7.952-19.952-7.952s-14.77 2.636-20.381 7.952c-5.316 5.611-7.952 12.407-7.952 20.381s2.636 14.636 7.952 19.952c5.611 5.611 12.407 8.429 20.381 8.429zM297.238 297.333c7.974 0 14.636-2.77 19.952-8.381 5.611-5.316 8.429-11.978 8.429-19.952s-2.817-14.77-8.429-20.381c-5.316-5.316-11.979-8-19.952-8s-14.722 2.684-20.333 8c-5.316 5.611-8 12.407-8 20.381s2.684 14.636 8 19.952c5.611 5.611 12.359 8.381 20.333 8.381z" />
<glyph unicode="&#xe902;" glyph-name="new-template" horiz-adv-x="878" d="M65.524 945.762c-29.444 0-53.333-23.889-53.333-53.333v-888.857c0-29.444 23.889-53.333 53.333-53.333h746.667c29.444 0 53.333 23.889 53.333 53.333v640c0 29.444-17.206 70.54-37.762 91.095l-173.333 173.333c-20.556 20.556-61.698 37.762-91.143 37.762h-497.762zM83.286 874.667h426.667v-231.095c0-29.444 23.889-53.333 53.333-53.333h231.143v-568.905h-711.143v853.333zM581.095 870.238c9.444-3.333 18.873-8.349 22.762-12.238l173.905-173.905c3.889-3.889 8.857-13.317 12.19-22.762h-208.857v208.905zM414.476 490.857c-12.963 0-23.476-10.514-23.476-23.476v-101.762h-101.762c-12.963 0-23.476-10.514-23.476-23.476v-46.952c0-12.963 10.514-23.476 23.476-23.476h101.762v-101.762c0-12.963 10.514-23.476 23.476-23.476h46.952c12.963 0 23.476 10.514 23.476 23.476v101.762h101.762c12.963 0 23.476 10.514 23.476 23.476v46.952c0 12.963-10.514 23.476-23.476 23.476h-101.762v101.762c0 12.963-10.514 23.476-23.476 23.476h-46.952z" />
<glyph unicode="&#xe903;" glyph-name="shared-folder" d="M829.44 727.251h-296.84l-47.104 62.886c-25.923 34.066-66.406 55.898-111.999 56.139h-178.938c-77.457-0.137-140.211-62.891-140.348-140.335v-515.868c0.137-77.457 62.891-140.211 140.335-140.348h634.893c77.457 0.137 140.211 62.891 140.348 140.335v396.482c0 0.036 0 0.078 0 0.121 0 77.561-62.807 140.452-140.335 140.589h-0.013zM911.119 190.072c-0.068-45.083-36.597-81.611-81.673-81.679h-634.887c-45.083 0.068-81.611 36.597-81.679 81.673v515.862c0.068 45.083 36.597 81.611 81.673 81.679h178.906c26.48-0.030 50.004-12.656 64.908-32.207l0.146-0.199 47.104-62.765 17.709-24.094h326.114c45.125-0.069 81.679-36.665 81.679-81.799 0 0 0 0 0 0v0zM614.4 451.132c0.071 0 0.156 0 0.24 0 34.132 0 61.801 27.669 61.801 61.801s-27.669 61.801-61.801 61.801c-34.047 0-61.664-27.532-61.801-61.547v-0.013c0-0.018 0-0.040 0-0.061 0-7.309 1.235-14.33 3.508-20.865l-0.135 0.446-103.966-60.235c-0.474 0.655-1.031 1.213-1.665 1.672l-0.021 0.015c-10.785 9.46-25.010 15.231-40.582 15.231-34.065 0-61.681-27.615-61.681-61.681 0-11.035 2.898-21.393 7.974-30.355l-0.16 0.307c11.046-18 30.619-29.824 52.953-29.824 16.92 0 32.255 6.786 43.431 17.785l-0.008-0.008 103.966-60.235c-2.138-5.921-3.374-12.754-3.374-19.876 0-0.085 0-0.171 0.001-0.256v0.013c-0.003-0.217-0.005-0.474-0.005-0.731 0-7.409 1.417-14.486 3.994-20.977l-0.135 0.384c8.944-23.66 31.407-40.178 57.728-40.178 33.999 0 61.56 27.562 61.56 61.56 0 28.833-19.822 53.036-46.582 59.725l-0.424 0.090c-4.366 1.539-9.418 2.572-14.664 2.884l-0.154 0.007c-19.639 0-37.082-9.398-48.078-23.943l-0.11-0.152-101.798 59.031c3.729 7.764 5.908 16.879 5.908 26.504s-2.179 18.74-6.070 26.88l0.162-0.376 101.798 58.79c11.336-14.332 28.681-23.481 48.167-23.612h0.022z" />
<glyph unicode="&#xe904;" glyph-name="file-upload" horiz-adv-x="878" d="M65.524 945.762c-29.444 0-53.333-23.889-53.333-53.333v-888.857c0-29.444 23.889-53.333 53.333-53.333h746.667c29.444 0 53.333 23.889 53.333 53.333v640c0 29.444-17.206 70.54-37.762 91.095l-173.333 173.333c-20.556 20.556-61.698 37.762-91.143 37.762h-497.762zM83.286 874.667h426.667v-231.095c0-29.444 23.889-53.333 53.333-53.333h231.143v-568.905h-711.143v853.333zM581.095 870.238c9.444-3.333 18.873-8.349 22.762-12.238l173.905-173.905c3.889-3.889 8.857-13.317 12.19-22.762h-208.857v208.905zM438.857 487.905c-8.019 0-15.814-3.102-21.238-8.762l-153.524-153.524c-5.66-5.66-8.952-13.457-8.952-21.476s3.292-15.53 8.952-21.19l17.667-17.714c5.424-5.66 13.219-8.952 21.238-8.952s15.814 3.292 21.238 8.952l69.333 69.095v-166c0-16.981 14.153-27.619 30.19-27.619h30.19c16.038 0 30.19 10.638 30.19 27.619v166l69.333-69.095c5.424-5.66 13.219-8.952 21.238-8.952s15.816 3.292 21.476 8.952l17.667 17.714c5.425 5.66 8.714 13.172 8.714 21.19s-3.29 15.816-8.714 21.476l-153.524 153.524c-5.66 5.66-13.457 8.762-21.476 8.762z" />
<glyph unicode="&#xe905;" glyph-name="template" horiz-adv-x="878" d="M65.524 945.762c-29.444 0-53.333-23.889-53.333-53.333v-888.857c0-29.444 23.889-53.333 53.333-53.333h746.667c29.444 0 53.333 23.889 53.333 53.333v640c0 29.444-17.206 70.54-37.762 91.095l-173.333 173.333c-20.556 20.556-61.698 37.762-91.143 37.762h-497.762zM83.286 874.667h426.667v-231.095c0-29.444 23.889-53.333 53.333-53.333h231.143v-568.905h-711.143v853.333zM581.095 870.238c9.444-3.333 18.873-8.349 22.762-12.238l173.905-173.905c3.889-3.889 8.857-13.317 12.19-22.762h-208.857v208.905zM535.524 513.905c-63.766 0-115.619-51.901-115.619-115.667s51.854-115.619 115.619-115.619c48.792 0 92.974 31.714 109.238 77.667 2.84 8.261 5.905 18.862 5.905 27.381 0 5.163-3.075 9.048-8.238 9.048s-65.052-37.714-73.571-42.619l-49.857 27.619v57.857l75.667 43.619c2.323 1.549 4.143 4.398 4.143 7.238 0 3.098-1.562 5.431-4.143 7.238-15.748 10.585-40.297 16.238-59.143 16.238zM412.667 349.714l-175.81-175.81c-6.196-6.196-9.81-14.699-9.81-23.476s3.614-17.3 9.81-23.238l27.333-27.905c6.196-5.938 14.746-9.524 23.524-9.524s17.3 3.586 23.238 9.524l176.048 176.095c-33.819 13.424-60.909 40.514-74.333 74.333zM304.238 183.476c9.036 0 16.524-7.488 16.524-16.524s-7.488-16.524-16.524-16.524c-9.036 0-16.524 7.488-16.524 16.524s7.488 16.524 16.524 16.524z" />
<glyph unicode="&#xe906;" glyph-name="poll" horiz-adv-x="878" d="M65.524 945.762c-29.444 0-53.333-23.889-53.333-53.333v-888.857c0-29.444 23.889-53.333 53.333-53.333h746.667c29.444 0 53.333 23.889 53.333 53.333v640c0 29.444-17.206 70.54-37.762 91.095l-173.333 173.333c-20.556 20.556-61.698 37.762-91.143 37.762h-497.762zM83.286 874.667h426.667v-231.095c0-29.444 23.889-53.333 53.333-53.333h231.143v-568.905h-711.143v853.333zM581.095 870.238c9.444-3.333 18.873-8.349 22.762-12.238l173.905-173.905c3.889-3.889 8.857-13.317 12.19-22.762h-208.857v208.905zM569.762 482.524v-349.238h162.714v349.238h-162.714zM358.238 385.476v-252.19h162.714v252.19h-162.714zM146.667 277.381v-144.095h162.762v144.095h-162.762z" />
<glyph unicode="&#xe907;" glyph-name="slide" horiz-adv-x="878" d="M65.524 945.762c-29.444 0-53.333-23.889-53.333-53.333v-888.857c0-29.444 23.889-53.333 53.333-53.333h746.667c29.444 0 53.333 23.889 53.333 53.333v640c0 29.444-17.206 70.54-37.762 91.095l-173.333 173.333c-20.556 20.556-61.698 37.762-91.143 37.762h-497.762zM83.286 874.667h426.667v-231.095c0-29.444 23.889-53.333 53.333-53.333h231.143v-568.905h-711.143v853.333zM581.095 870.238c9.444-3.333 18.873-8.349 22.762-12.238l173.905-173.905c3.889-3.889 8.857-13.317 12.19-22.762h-208.857v208.905zM142.286 550.714v-255.238h133.19v-109.762h133.143v-109.81h326.809v255.381h-133.143v109.81h-133.143v109.619h-326.857zM191.048 501.905h229.286v-60.81h-144.857v-96.81h-84.429v157.619zM324.238 392.333h229.286v-61.048h-144.905v-96.81h-84.381v157.857zM457.381 282.524h229.286v-157.81h-229.286v157.81z" />
<glyph unicode="&#xe908;" glyph-name="sheet" horiz-adv-x="878" d="M65.524 945.762c-29.444 0-53.333-23.889-53.333-53.333v-888.857c0-29.444 23.889-53.333 53.333-53.333h746.667c29.444 0 53.333 23.889 53.333 53.333v640c0 29.444-17.206 70.54-37.762 91.095l-173.333 173.333c-20.556 20.556-61.698 37.762-91.143 37.762h-497.762zM83.286 874.667h426.667v-231.095c0-29.444 23.889-53.333 53.333-53.333h231.143v-568.905h-711.143v853.333zM581.095 870.238c9.444-3.333 18.873-8.349 22.762-12.238l173.905-173.905c3.889-3.889 8.857-13.317 12.19-22.762h-208.857v208.905zM141.286 532.571v-463.81h598.429v463.81h-598.429zM190.048 483.762h134.429v-158.714h-134.429v158.714zM373.286 483.762h134.429v-158.714h-134.429v158.714zM556.524 483.762h134.429v-158.714h-134.429v158.714zM190.048 276.286h134.429v-158.762h-134.429v158.762zM373.286 276.286h134.429v-158.762h-134.429v158.762zM556.524 276.286h134.429v-158.762h-134.429v158.762z" />
<glyph unicode="&#xe909;" glyph-name="folder-open" d="M100.232 590.035h828.717c-5.175 69.899-63.091 124.668-133.829 124.808h-283.843l-44.936 60.235c-24.766 32.712-63.599 53.649-107.326 53.73h-170.599c-0.036 0-0.078 0-0.121 0-73.968 0-133.946-59.894-134.084-133.83v-213.366l10.12 76.74c2.295 17.95 17.476 31.684 35.865 31.684 0.012 0 0.025 0 0.037 0h-0.002zM929.19 541.606h-805.948c-13.269-0.004-24.238-9.848-26.006-22.632l-0.016-0.137-43.008-317.801c-0.002-0.261-0.003-0.569-0.003-0.877 0-6.111 0.483-12.11 1.413-17.96l-0.085 0.646c0.904-6.888 2.169-12.966 3.837-18.875l-0.223 0.925c16.563-56.812 68.138-97.63 129.257-97.702h606.698c61.093 0.086 112.628 40.906 128.907 96.752l0.237 0.95c1.459 5.065 2.725 11.228 3.544 17.531l0.070 0.66c0.844 5.201 1.327 11.196 1.327 17.304 0 0.227-0.001 0.454-0.002 0.681v-0.035l40.237 295.755c0.219 1.556 0.344 3.354 0.344 5.18 0 21.624-17.529 39.153-39.153 39.153-0.036 0-0.073 0-0.109 0h0.006z" />
<glyph unicode="&#xe90a;" glyph-name="kanban" horiz-adv-x="878" d="M65.524 945.762c-29.444 0-53.333-23.889-53.333-53.333v-888.857c0-29.444 23.889-53.333 53.333-53.333h746.667c29.444 0 53.333 23.889 53.333 53.333v640c0 29.444-17.206 70.54-37.762 91.095l-173.333 173.333c-20.556 20.556-61.698 37.762-91.143 37.762h-497.762zM83.286 874.667h426.667v-231.095c0-29.444 23.889-53.333 53.333-53.333h231.143v-568.905h-711.143v853.333zM581.095 870.238c9.444-3.333 18.873-8.349 22.762-12.238l173.905-173.905c3.889-3.889 8.857-13.317 12.19-22.762h-208.857v208.905zM146.667 493.81v-90.143h162.762v90.143h-162.762zM358.238 493.81v-90.143h162.714v90.143h-162.714zM569.762 493.81v-90.143h162.714v90.143h-162.714zM146.667 358.619v-90.143h162.762v90.143h-162.762zM569.762 358.619v-90.143h162.714v90.143h-162.714zM146.667 223.429v-90.143h162.762v90.143h-162.762z" />
<glyph unicode="&#xe90b;" glyph-name="folder" d="M373.459 846.276h-178.899c-77.457-0.137-140.211-62.891-140.348-140.335v-515.868c0.137-77.457 62.891-140.211 140.335-140.348h634.893c77.457 0.137 140.211 62.891 140.348 140.335v396.482c0 0.036 0 0.078 0 0.121 0 77.561-62.807 140.452-140.335 140.589h-296.853l-47.104 62.886c-25.923 34.066-66.406 55.898-111.999 56.139h-0.039z" />
<glyph unicode="&#xe90c;" glyph-name="shared-folder-open" d="M98.424 593.288h797.274c-4.8 67.457-60.657 120.376-128.894 120.471h-272.876l-43.249 57.705c-23.816 31.47-61.17 51.611-103.232 51.682h-164.213c-0.036 0-0.079 0-0.121 0-71.191 0-128.904-57.712-128.904-128.904 0-0.17 0-0.339 0.001-0.508v0.026-204.8l9.638 73.487c2.062 17.437 16.753 30.833 34.574 30.84h0.001zM900.759 255.608l33.973 248.049c0.196 1.447 0.308 3.12 0.308 4.819 0 20.873-16.906 37.797-37.772 37.828h-776.797c-12.746-0.016-23.272-9.5-24.923-21.796l-0.014-0.129-41.321-304.791c-0.002-0.25-0.003-0.546-0.003-0.843 0-5.87 0.483-11.628 1.412-17.235l-0.083 0.609c0.793-6.689 1.977-12.655 3.576-18.449l-0.203 0.861c15.92-54.648 65.53-93.912 124.319-93.967h583.566c0.061 0 0.133 0 0.205 0 16.48 0 32.227 3.14 46.675 8.853l-0.86-0.3c16.639-15.985 39.283-25.829 64.225-25.829 51.231 0 92.762 41.531 92.762 92.762 0 42.798-28.984 78.827-68.394 89.528l-0.65 0.15zM766.795 148.51h-583.56c-32.265 0.073-59.5 21.523-68.297 50.935l-0.13 0.506c-0.742 2.66-1.376 5.889-1.775 9.19l-0.032 0.327v1.566c0 1.566 0 3.373 0 5.301l36.382 272.023h724.751l-32.407-236.845c-1.82-0.63-3.331-1.281-4.788-2.025l0.21 0.097c-16.682-8.067-30.192-20.454-39.403-35.727l-0.232-0.415c-1.574-2.381-3.028-5.115-4.218-7.987l-0.119-0.325c-5.551-11.368-8.797-24.735-8.797-38.86 0-0.23 0.001-0.46 0.003-0.689v0.035c0-0.017 0-0.037 0-0.057 0-5.166 0.394-10.241 1.154-15.195l-0.070 0.554c-5.405-1.532-11.612-2.412-18.026-2.412-0.228 0-0.455 0.001-0.682 0.003h0.035zM877.026 84.781c-20.129 0.108-38.483 7.622-52.493 19.954l0.089-0.077c-14.994 12.543-25.212 30.362-27.788 50.568l-0.041 0.392c-0.537 3.145-0.844 6.769-0.844 10.463 0 0.091 0 0.182 0.001 0.273v-0.014c-0.001 0.109-0.001 0.239-0.001 0.368 0 12.484 2.89 24.293 8.038 34.794l-0.207-0.466c1.278 2.771 2.523 5.062 3.896 7.265l-0.161-0.278c7.898 12.884 18.884 23.175 31.958 30.024l0.449 0.214c0.692 0.493 1.491 0.902 2.346 1.186l0.064 0.018c10.065 4.991 21.914 7.922 34.445 7.951h0.010c0.046 0 0.1 0 0.154 0 7.802 0 15.336-1.144 22.444-3.275l-0.553 0.142c35.119-9.412 60.555-40.954 60.555-78.437 0-44.777-36.299-81.077-81.077-81.077-0.451 0-0.902 0.004-1.351 0.011l0.068-0.001zM906.059 183.206c9.581 0 17.348 7.767 17.348 17.348s-7.767 17.348-17.348 17.348v0c-0.002 0-0.004 0-0.007 0-9.411 0-17.072-7.495-17.341-16.841l-0.001-0.025c-0.004-0.12-0.006-0.262-0.006-0.404 0-1.849 0.356-3.615 1.003-5.232l-0.034 0.095-29.274-16.986c-3.089 3.105-7.328 5.063-12.025 5.18h-0.022c-9.003-0.772-16.019-8.271-16.019-17.408s7.015-16.636 15.954-17.404l0.065-0.004c4.719 0.117 8.958 2.075 12.046 5.179l0.001 0.001 12.047-7.228 16.504-9.638c-0.536-1.568-0.846-3.375-0.846-5.255 0-0.101 0.001-0.202 0.003-0.302v0.015c0-9.581 7.767-17.348 17.348-17.348s17.348 7.767 17.348 17.348c0 9.581-7.767 17.348-17.348 17.348v0c-5.563-0.038-10.508-2.653-13.705-6.709l-0.028-0.037-16.143 9.397-12.047 7.228c1.007 2.155 1.621 4.672 1.686 7.326v0.023c-0.052 2.758-0.667 5.36-1.736 7.712l0.050-0.122 28.672 16.625c3.116-4.367 8.151-7.19 13.848-7.228h0.006z" />
<glyph unicode="&#xe90d;" glyph-name="code" horiz-adv-x="878" d="M827.746 734.667l-173.333 173.333c-20.556 20.556-61.667 37.778-91.111 37.778h-497.778c-29.444 0-53.333-23.889-53.333-53.333v-888.889c0-29.444 23.889-53.333 53.333-53.333h746.667c29.444 0 53.333 23.889 53.333 53.333v640c0 29.444-17.222 70.556-37.778 91.111zM581.079 870.222c9.444-3.333 18.889-8.333 22.778-12.222l173.889-173.889c3.889-3.889 8.889-13.333 12.222-22.778h-208.889zM794.413 21.333h-711.111v853.333h426.667v-231.111c0-29.444 23.889-53.333 53.333-53.333h231.111zM278.857 519.111l-125.556-167.222c-4.444-6.111-4.444-15 0-21.111l125.556-167.222c6.111-7.778 17.222-9.444 25-3.333l28.333 21.111c7.778 6.111 9.444 17.222 3.333 25l-101.111 135 101.111 135c6.111 7.778 4.444 18.889-3.333 25l-28.333 21.111c-7.777 6.111-18.889 4.444-25-3.333zM724.413 351.889l-125.556 167.222c-6.111 7.778-17.222 9.444-25 3.333l-28.333-21.111c-7.777-6.111-9.444-17.222-3.333-25l101.111-135-101.111-135c-6.111-7.778-4.444-18.889 3.333-25l28.333-21.111c7.778-6.111 18.889-4.444 25 3.333l125.556 167.222c4.444 6.111 4.444 15 0 21.111zM379.968 95.778l35-5.556c9.444-1.667 18.889 4.444 20.556 14.444l76.667 461.667c1.667 9.444-4.444 18.889-14.444 20.556l-35 5.556c-9.444 1.667-18.889-4.444-20.556-14.444l-76.667-461.667c-1.667-9.444 4.444-18.889 14.444-20.556z" />
<glyph unicode="&#xe90e;" glyph-name="richtext" horiz-adv-x="878" d="M827.746 734.667l-173.333 173.333c-20.556 20.556-61.667 37.778-91.111 37.778h-497.778c-29.444 0-53.333-23.889-53.333-53.333v-888.889c0-29.444 23.889-53.333 53.333-53.333h746.667c29.444 0 53.333 23.889 53.333 53.333v640c0 29.444-17.222 70.556-37.778 91.111zM581.079 870.222c9.444-3.333 18.889-8.333 22.778-12.222l173.889-173.889c3.889-3.889 8.889-13.333 12.222-22.778h-208.889zM794.413 21.333h-711.111v853.333h426.667v-231.111c0-29.444 23.889-53.333 53.333-53.333h231.111zM225.524 501.333v-35.556c0-10 7.778-17.778 17.778-17.778h391.111c10 0 17.778 7.778 17.778 17.778v35.556c0 10-7.778 17.778-17.778 17.778h-391.111c-10 0-17.778-7.778-17.778-17.778zM634.413 376.889h-391.111c-10 0-17.778-7.778-17.778-17.778v-35.556c0-10 7.778-17.778 17.778-17.778h391.111c10 0 17.778 7.778 17.778 17.778v35.556c0 10-7.778 17.778-17.778 17.778zM634.413 234.667h-391.111c-10 0-17.778-7.778-17.778-17.778v-35.556c0-10 7.778-17.778 17.778-17.778h391.111c10 0 17.778 7.778 17.778 17.778v35.556c0 10-7.778 17.778-17.778 17.778z" />
<glyph unicode="&#xe90f;" glyph-name="file" horiz-adv-x="878" d="M827.745 734.666l-173.333 173.333c-20.556 20.556-61.667 37.778-91.111 37.778h-497.777c-29.444 0-53.333-23.889-53.333-53.333v-888.887c0-29.444 23.889-53.333 53.333-53.333h746.665c29.444 0 53.333 23.889 53.333 53.333v639.999c0 29.444-17.222 70.555-37.778 91.111zM581.079 870.221c9.444-3.333 18.889-8.333 22.778-12.222l173.889-173.889c3.889-3.889 8.889-13.333 12.222-22.778h-208.889zM794.412 21.334h-711.11v853.332h426.666v-231.111c0-29.444 23.889-53.333 53.333-53.333h231.111z" />
<glyph unicode="&#xe911;" glyph-name="palette" d="M408.6 950c-198.8-38.8-359-198.6-398.2-396.8-74-374 263.4-652.8 517.6-613.4 82.4 12.8 122.8 109.2 85 183.4-46.2 90.8 19.8 196.8 121.8 196.8h159.4c71.6 0 129.6 59.2 129.8 130.6-1 315.2-287.8 563.2-615.4 499.4zM192 320c-35.4 0-64 28.6-64 64s28.6 64 64 64 64-28.6 64-64-28.6-64-64-64zM256 576c-35.4 0-64 28.6-64 64s28.6 64 64 64 64-28.6 64-64-28.6-64-64-64zM512 704c-35.4 0-64 28.6-64 64s28.6 64 64 64 64-28.6 64-64-28.6-64-64-64zM768 576c-35.4 0-64 28.6-64 64s28.6 64 64 64 64-28.6 64-64-28.6-64-64-64z" />
<glyph unicode="&#xe912;" glyph-name="folder-upload" d="M829.44 727.251h-296.84l-47.104 62.886c-25.923 34.066-66.406 55.898-111.999 56.139h-178.938c-77.457-0.137-140.211-62.891-140.348-140.335v-515.868c0.137-77.457 62.891-140.211 140.335-140.348h634.893c77.457 0.137 140.211 62.891 140.348 140.335v396.482c0 0.036 0 0.078 0 0.121 0 77.561-62.807 140.452-140.335 140.589h-0.013zM911.119 190.072c-0.068-45.083-36.597-81.611-81.673-81.679h-634.887c-45.083 0.068-81.611 36.597-81.679 81.673v515.862c0.068 45.083 36.597 81.611 81.673 81.679h178.906c26.48-0.030 50.004-12.656 64.908-32.207l0.146-0.199 47.104-62.765 17.709-24.094h326.114c45.125-0.069 81.679-36.665 81.679-81.799 0 0 0 0 0 0v0zM562.838 166.883h-102.039v203.957h-72.523l123.723 214.076 123.723-214.076h-72.885v-203.957z" />
<glyph unicode="&#xe913;" glyph-name="add-bottom" d="M108.793 271.501c-15.312 0-27.996 12.684-27.996 27.996v55.992c0 15.312 12.684 28.006 27.996 28.006h225.414v-111.993zM108.793 495.478c-15.312 0-27.996 12.694-27.996 28.006v55.992c0 15.312 12.684 27.996 27.996 27.996h403.491v-111.993zM108.793 719.465c-15.312 0-27.996 12.694-27.996 28.006v55.992c0 15.312 12.684 27.996 27.996 27.996h615.968c15.312 0 27.996-12.684 27.996-27.996v-55.992c0-15.312-12.684-28.006-27.996-28.006zM943.202 287.839c0-19.465-15.792-35.257-35.258-35.257h-152.782v-152.782c0-19.465-15.792-35.257-35.258-35.257h-70.515c-19.465 0-35.257 15.792-35.257 35.257v152.782h-152.782c-19.465 0-35.257 15.792-35.257 35.257v70.515c0 19.465 15.792 35.258 35.257 35.258h152.782v152.782c0 19.465 15.792 35.258 35.257 35.258h70.515c19.465 0 35.258-15.792 35.258-35.258v-152.782h152.782c19.465 0 35.258-15.792 35.258-35.258z" />
<glyph unicode="&#xe914;" glyph-name="add-top" d="M108.793 624.499c-15.312 0-27.996-12.684-27.996-27.996v-55.992c0-15.312 12.684-28.006 27.996-28.006h225.414v111.993zM108.793 400.522c-15.312 0-27.996-12.694-27.996-28.006v-55.992c0-15.312 12.684-27.996 27.996-27.996h403.491v111.993zM108.793 176.535c-15.312 0-27.996-12.694-27.996-28.006v-55.992c0-15.312 12.684-27.996 27.996-27.996h615.968c15.312 0 27.996 12.684 27.996 27.996v55.992c0 15.312-12.684 28.006-27.996 28.006zM943.202 608.161c0 19.465-15.792 35.257-35.258 35.257h-152.782v152.782c0 19.465-15.792 35.257-35.258 35.257h-70.515c-19.465 0-35.257-15.792-35.257-35.257v-152.782h-152.782c-19.465 0-35.257-15.792-35.257-35.257v-70.515c0-19.465 15.792-35.258 35.257-35.258h152.782v-152.782c0-19.465 15.792-35.258 35.257-35.258h70.515c19.465 0 35.258 15.792 35.258 35.258v152.782h152.782c19.465 0 35.258 15.792 35.258 35.258z" />
<glyph unicode="&#xe915;" glyph-name="destroy" d="M193.049 938.213c-25.264 0-45.745-20.492-45.745-45.757v-443.97h-67.453c-26.649-0.003-48.252-21.606-48.255-48.255 0.023-26.635 21.62-48.216 48.255-48.219h157.56l-80.102-86.481 86.481-94.352-86.396-94.23 109.353-119.164 39.535 49.965-63.439 69.247 86.347 94.181-86.262 94.085 80.344 86.748h171.688l-80.102-86.481 86.481-94.352-86.347-94.23 109.305-119.164 39.535 49.965-63.439 69.247 86.347 94.181-86.262 94.085 80.344 86.748h171.688l-80.102-86.481 86.529-94.352-86.396-94.23 109.341-119.164 39.499 49.965-63.451 69.199 86.396 94.23-86.299 94.133 80.344 86.699h105.763c26.64-0.004 48.244 21.579 48.267 48.219-0.003 26.654-21.613 48.259-48.267 48.255h-64.663v230.418c0 25.264-14.779 60.536-32.417 78.174l-148.718 148.719c-17.637 17.637-52.909 32.417-78.173 32.417zM208.317 877.2h366.078v-198.296c0-25.264 20.505-45.769 45.769-45.769h198.296v-184.65h-610.143zM635.409 873.392c8.104-2.86 16.213-7.154 19.549-10.49l149.204-149.204c3.337-3.336 7.63-11.446 10.49-19.549h-179.243z" />
</font>
</defs>
</svg>
